云大全

 找回密码
 立即注册

QQ登录

只需一步,快速开始

延迟 助勃 逼真玩偶 炒股入门知识与技巧书籍下载

[华语] 87版《红楼梦主题歌曲.陈力》WAV分轨|无损音乐[免费下载][百度网盘/迅雷]

[复制链接]
doc123 发表于 2019-8-22 09:59:24 | 显示全部楼层 |阅读模式
所有音乐分类
按歌手: 华语女歌手 
按曲风: 中国风 影视 经典 
按乐器: 其他… 
按大小: 455 GB
87版《红楼梦主题歌曲.陈力》WAV分轨|无损音乐[免费下载][百度网盘/迅雷]

87版《红楼梦主题歌曲.陈力》WAV整轨[免费下载][百度网盘/迅雷]

87版《红楼梦主题歌曲.陈力》WAV整轨[免费下载][百度网盘/迅雷]
img005-1.jpg img008-1.jpg


1. 《红楼梦序曲》

2. 《枉凝眉》

3. 《葬花吟》

4. 《晴雯歌》

5. 《好了歌》

6. 《聪明累》

7. 《分骨肉》

8. 《题帕三绝》

9. 《秋窗风雨夕》

10. 《紫菱洲歌》

11. 《叹香菱》

12. 《红豆曲》

13. 《红楼梦引子》


下载文件目录:

陈力 王洁实 - 87原版《红楼梦》电视剧主题曲.wav 452.84 MB
img005-1.jpg 179.08 KB
img004-1.jpg 178.79 KB
img006-1.jpg 134.49 KB
img007-1.jpg 125.23 KB
img008-1.jpg 120.34 KB
87原版《红楼梦》电视剧主题曲.log 5.01 KB
陈力 王洁实 - 87原版《红楼梦》电视剧主题曲.cue 1.63 KB


陈力 王洁实 / 87原版《红楼梦》电视剧主题曲

Used drive  : PLEXTOR DVDR   PX-850A   Adapter: 0  ID: 1

Read mode               : Secure
Utilize accurate stream : Yes
Defeat audio cache      : Yes
Make use of C2 pointers : No

Read offset correction                      : 6
Overread into Lead-In and Lead-Out          : No
Fill up missing offset samples with silence : Yes
Delete leading and trailing silent blocks   : No
Null samples used in CRC calculations       : No
Used interface                              : Native Win32 interface for Win NT & 2000

Used output format : Internal WAV Routines
Sample format      : 44.100 Hz; 16 Bit; Stereo


TOC of the extracted CD

     Track |   Start  |  Length  | Start sector | End sector
    ---------------------------------------------------------
        1  |  0:00.00 |  3:23.54 |         0    |    15278   
        2  |  3:23.54 |  2:57.51 |     15279    |    28604   
        3  |  6:21.30 |  6:09.28 |     28605    |    56307   
        4  | 12:30.58 |  4:26.20 |     56308    |    76277   
        5  | 16:57.03 |  2:58.17 |     76278    |    89644   
        6  | 19:55.20 |  2:22.35 |     89645    |   100329   
        7  | 22:17.55 |  3:18.47 |    100330    |   115226   
        8  | 25:36.27 |  4:39.18 |    115227    |   136169   
        9  | 30:15.45 |  2:50.00 |    136170    |   148919   
       10  | 33:05.45 |  1:36.18 |    148920    |   156137   
       11  | 34:41.63 |  3:42.53 |    156138    |   172840   
       12  | 38:24.41 |  4:50.69 |    172841    |   194659   
       13  | 43:15.35 |  1:36.25 |    194660    |   201884   




【免费下载链接】支持百度云网盘离线下载、迅雷下载、QQ旋风下载、磁力链接下载、电驴下载、BT种子下载「下载方法 www.yundaquan.com/thread-56460-1-1.html」:

magnet:?xt=urn:btih:404ac0dec91c4ddaaa0b979f6ff2b33167d8e287&dn=陈力 王洁实 - 87原版《红楼梦》电视剧主题曲

magnet:?xt=urn:btih:91f6244051d5ebb47209f4774febf941e604323e&dn=陈力—红楼梦电视连续剧原声

您需要登录后才可以回帖 登录 | 立即注册

本版积分规则

Archiver|手机版|小黑屋|版权声明|云大全

GMT+8, 2020-10-1 03:46 , Processed in 0.079808 second(s), 32 queries .

Powered by Discuz! X3.4

© 2001-2013 yundaquan.

快速回复 返回顶部 返回列表